Логин:
Пароль:

Скачать Как закалялся стайл 2 торрент бесплатно!

184 159 Торрент фильмы и сериалы 0 8735 gaming-resource 16.03.2015
Как закалялся стайл 2
Год выпуска: 2014-2015
Производство: Украина НЛО ТВ
Жанр: комедия
Продолжительность: ~00.25.00 серия
Субтитры: нет

Режиссёр: Валентин Шпаков

В ролях: Александр Ярмак, Евгений Янович, Анна Седокова, Алексей Горбунов, Алексей Маклаков

Описание: О студенте Саше Ярмаке… Он живет в простом общежитии, и пробует себя как рэп — испонитель… Но вдруг он понимает что его будущее может быть совсем другим, и что бы исполнить свою мечту, воплотить ее в реальность, он решает во что бы то ни стало, сделать все возможное… На помощь ему решается придти его лучший друг Гусь… Он берет на себя обязанности продюсера… Хотя в этом ничего не смыслит, всегда находит сомнительные варианты для выступлений. На пути к успеху им придется пойти если не на все, то на многое. Но кто сказал, что жизнь полная смеха и приключений — это не успех?



Качество: WEBRip
Формат: AVI
Видео кодек: XviD
Аудио кодек: AC3
Видео: MPEG-4 Visual,~ 1 308 Kbps, 25.000 fps, 720х400, 0.182
Аудио: AC-3, 192 Kbps, 2 channels, 44,1 КГц
MI
Формат : AVI
Формат/Информация : Audio Video Interleave
Размер файла : 350 MiB
Продолжительность : 32mn 25s
Общий поток : 1 510 Kbps
Программа кодирования : VirtualDubMod 1.5.10.3 | www.virtualdub-fr.org || (build 2550/release)
Библиотека кодирования : VirtualDubMod build 2550/release

Video
Идентификатор : 0
Формат : MPEG-4 Visual
Профиль формата : Advanced Simple@L5
Параметр BVOP формата : 2
Параметр QPel формата : No
Параметр GMC формата : No warppoints
Параметр матрицы формата : Default (H.263)
Режим смешивания : Packed bitstream
Идентификатор кодека : XVID
Идентификатор кодека/Подсказка : XviD
Продолжительность : 32mn 25s
Битрейт : 1 308 Kbps
Ширина : 720 pixels
Высота : 400 pixels
Соотношение сторон : 16:9
Частота кадров : 25.000 fps
Цветовое пространство : YUV
Субдискретизация насыщенности : 4:2:0
Битовая глубина : 8 bits
Тип развёртки : Progressive
Метод сжатия : Lossy
Бит/(Пиксели*Кадры) : 0.182
Размер потока : 303 MiB (87%)
Библиотека кодирования : XviD 64

Audio
Идентификатор : 1
Формат : AC-3
Формат/Информация : Audio Coding 3
Расширение режима : CM (complete main)
Параметр Endianness формата : Big
Идентификатор кодека : 2000
Продолжительность : 32mn 25s
Вид битрейта : Constant
Битрейт : 192 Kbps
Каналы : 2 channels
Расположение каналов : Front: L R
Частота : 44.1 KHz
Битовая глубина : 16 bits
Метод сжатия : Lossy
Размер потока : 44.5 MiB (13%)
Выравнивание : Split accross interleaves
Продолжительность промежутка : 40 ms (1.00 video frame)
Время предзагрузки промежутка : 500 ms


Внимание ! Раздача ведётся путём добавления новых серий
Внимание! Раздача ведётся путём добавления новых серий; при каждом добавлении создётся новый торрент. Чтобы начать докачку новой серии, пользователям необходимо сделать следующее:
(1) остановить скачивание,
(2) удалить старый торрент у себя из клиента (старые серии удалять не надо),
(3) скачать новый торрент и запустить его у себя в клиенте вместо старого, при этом указать клиенту путь в старую папку куда и должно происходить скачивание новых серий.
Ваш клиент при этом должен произвести хеширование (проверку) старой папки (если не производит сам - помогите ему сделать это), и будет докачивать только те серии которых у вас ещё нет. Старые серии при этом не удаляются, а продолжают раздаваться!
Eсли вы уже удалили старые серии, то предотвратить повторную закачку старых серий можно, отжав галочку в соответсвующих местах при запуске нового торрента. По возможности, желательно не удалять старые серии как можно дольше чтобы релизёр не столько продолжал раздавать старые серии, а смог сконцентрироваться на новых.


Рекламы сторонних ресурсов нет


Так же помимо того что у нас можно скачать в торрент второй сезон можно смотреть в онлайн второй сезон как закалялся стайл и к онлайн просмотру доступен ещё первый сезон!

Перед копированием материала "Как закалялся стайл 2 торрент " обязательно указывать ссылку на источник изъятого торрента Gaming-Resource.3dn.Ru!
Скачать Как закалялся стайл 2.torrent бесплатно!
Скачать .torrent (17.7Kb)
Торрент:
Зарегистрирован
Статус:
v проверено
.torrent скачан:
1847 раз
Скачать Как закалялся стайл 2 торрент бесплатно!
Всего комментариев к торренту: 0
Уважаемый посетитель, Вы зашли на сайт как незарегистрированный пользователь. Мы рекомендуем Вам зарегистрироваться либо войти на сайт под своим именем.
Рейтинг@Mail.ru

Администрация не несет ответственности за предоставленные на сайте материалы. Весь архив предоставлен только в ознакомительных целях.

Любой торрент файл будет удален по требованию правообладателя. Хостинг от uCoz

| Карта сайта